Technology and Online Community For All
welcome JOIN US NOW AND FEEL THE DIFFERENCE headbang

Technology and Online Community For All

What You See Is What You Get
 
HomeCalendarGalleryFAQSearchMemberlistUsergroupsRegisterLog in
November 2017
SunMonTueWedThuFriSat
   1234
567891011
12131415161718
19202122232425
2627282930  
CalendarCalendar
Latest topics
» Uniblue PowerSuite
Mon Apr 09, 2012 7:27 pm by BlitzKrieG

» Ova Drive Hider
Fri Mar 02, 2012 8:48 am by CodeWarrior

» Ova Folder Security
Mon Feb 27, 2012 5:06 pm by CodeWarrior

» SPSBox
Sun Feb 26, 2012 4:24 am by CodeWarrior

» Norton [all here]
Thu Feb 23, 2012 8:01 am by BlitzKrieG

» OvaSystemSolution CVRS System
Sat Feb 18, 2012 6:06 am by CodeWarrior

» Avril Lavigne - Smile
Sat Jan 28, 2012 7:14 am by ^PiNKHeRMioNe

» Hot N Cold- Katy Perry
Sat Jan 28, 2012 7:11 am by ^PiNKHeRMioNe

» America's next top model (All Stars) Lisa D'Amato
Sat Jan 28, 2012 6:55 am by ^PiNKHeRMioNe

Search
 
 

Display results as :
 
Rechercher Advanced Search
Who is online?
In total there is 0 user online :: 0 Registered, 0 Hidden and 0 Guests :: 1 Bot

None

Most users ever online was 25 on Fri Dec 19, 2014 9:47 pm
Top posters
trekyboy
 
BlitzKrieG
 
ZNABiRA
 
EDI`STEALTH
 
*B o R g Z
 
SHY
 
CodeWarrior
 
^PiNKHeRMioNe
 
RaiJin
 
chaotic`
 
Statistics
We have 239 registered users
The newest registered user is Hellraiser666

Our users have posted a total of 948 messages in 662 subjects

Share | 
 

 Contagion 2011

View previous topic View next topic Go down 
AuthorMessage
trekyboy
Global Moderator
Global Moderator
avatar

Join date : 2011-12-06
Male Posts : 378

PostSubject: Contagion 2011   Mon Dec 12, 2011 8:36 am



Matt Damon, Gwyneth Paltrow, Jude Law, Laurence Fishburne and Bryan Cranston, along with medical journalist Sanjay Gupta, explore the real science of global viruses and what they mean to the human race. The world is preparing for the next biological disaster…but is it too late?










Language: English
Subtitle: English / French / Spanish
Genre: Drama | Sci-Fi | Thriller

General
Complete name: contagion.2011.dvdrip.xvid-amiable.avi
Format : AVI
Format/Info: Audio Video Interleave
File size: 700 MiB
Duration : 1h 46mn
Overall bit rate mode: Variable
Overall bit rate : 920 Kbps
Writing application: Nandub v1.0rc2
Writing library: Nandub build 1853/release

Video
ID : 0
Format : MPEG-4 Visual
Format profile : Advanced Simple@L5
Format settings, BVOP: 1
Format settings, QPel: No
Format settings, GMC : No warppoints
Format settings, Matrix: Default (H.263)
Muxing mode: Packed bitstream
Codec ID : XVID
Codec ID/Hint: XviD
Duration : 1h 46mn
Bit rate : 774 Kbps
Width: 624 pixels
Height : 352 pixels
Display aspect ratio : 16:9
Frame rate : 23.976 fps
Color space: YUV
Chroma subsampling : 4:2:0
Bit depth: 8 bits
Scan type: Progressive
Compression mode : Lossy
Bits/(Pixel*Frame) : 0.147
Stream size: 589 MiB (84%)
Writing library: XviD 64

Audio
ID : 1
Format : MPEG Audio
Format version : Version 1
Format profile : Layer 3
Mode : Joint stereo
Mode extension : MS Stereo
Codec ID : 55
Codec ID/Hint: MP3
Duration : 1h 46mn
Bit rate mode: Variable
Bit rate : 133 Kbps
Channel(s) : 2 channels
Sampling rate: 48.0 KHz
Compression mode : Lossy
Delay relative to video: 8ms
Stream size: 101 MiB (14%)
Alignment: Aligned on interleaves
Interleave, duration : 24 ms (0.58 video frame)
Interleave, preload duration : 138 ms

SUBS
[You must be registered and logged in to see this link.]





[You must be registered and logged in to see this link.]


[You must be registered and logged in to see this link.]

Back to top Go down
View user profile
EDI`STEALTH
Contributor
Contributor
avatar

Join date : 2011-12-16
Male Posts : 110
Location : Recycle Bin

PostSubject: Re: Contagion 2011   Sun Dec 25, 2011 8:32 pm





Download:

Download Link:
[You must be registered and logged in to see this link.]


Download Link:
[You must be registered and logged in to see this link.]
Back to top Go down
View user profile
 
Contagion 2011
View previous topic View next topic Back to top 
Page 1 of 1

Permissions in this forum:You cannot reply to topics in this forum
Technology and Online Community For All :: Movie Zone :: Foreign-
Jump to: