Technology and Online Community For All
welcome JOIN US NOW AND FEEL THE DIFFERENCE headbang

Technology and Online Community For All

What You See Is What You Get
 
HomeCalendarGalleryFAQSearchMemberlistUsergroupsRegisterLog in
September 2017
SunMonTueWedThuFriSat
     12
3456789
10111213141516
17181920212223
24252627282930
CalendarCalendar
Latest topics
» Uniblue PowerSuite
Mon Apr 09, 2012 7:27 pm by BlitzKrieG

» Ova Drive Hider
Fri Mar 02, 2012 8:48 am by CodeWarrior

» Ova Folder Security
Mon Feb 27, 2012 5:06 pm by CodeWarrior

» SPSBox
Sun Feb 26, 2012 4:24 am by CodeWarrior

» Norton [all here]
Thu Feb 23, 2012 8:01 am by BlitzKrieG

» OvaSystemSolution CVRS System
Sat Feb 18, 2012 6:06 am by CodeWarrior

» Avril Lavigne - Smile
Sat Jan 28, 2012 7:14 am by ^PiNKHeRMioNe

» Hot N Cold- Katy Perry
Sat Jan 28, 2012 7:11 am by ^PiNKHeRMioNe

» America's next top model (All Stars) Lisa D'Amato
Sat Jan 28, 2012 6:55 am by ^PiNKHeRMioNe

Search
 
 

Display results as :
 
Rechercher Advanced Search
Who is online?
In total there is 1 user online :: 0 Registered, 0 Hidden and 1 Guest

None

Most users ever online was 25 on Fri Dec 19, 2014 9:47 pm
Top posters
trekyboy
 
BlitzKrieG
 
ZNABiRA
 
EDI`STEALTH
 
*B o R g Z
 
SHY
 
CodeWarrior
 
^PiNKHeRMioNe
 
RaiJin
 
chaotic`
 
Similar topics
Statistics
We have 239 registered users
The newest registered user is Hellraiser666

Our users have posted a total of 948 messages in 662 subjects

Share | 
 

 Mortal Kombat Legacy 2011

View previous topic View next topic Go down 
AuthorMessage
trekyboy
Global Moderator
Global Moderator
avatar

Join date : 2011-12-06
Male Posts : 378

PostSubject: Mortal Kombat Legacy 2011   Wed Dec 14, 2011 8:28 am




Mortal Kombat: Legacy brings to life the complex and rich history of the gaming world of MORTAL KOMBAT. Shao Kahn and Shang Tsung are obsessed with reigning over various realms (parallel universes) and the winners of Mortal Kombat competitions are granted supreme control over these worlds. The Earthrealm (Earth) is an unconscious participant in this competition and only a few select humans understand the consequences of losing Mortal Kombat and what it will mean to Earth. In a universe with powerful evil sorcerers, cyborgs, Gods and movie stars, this Mortal Kombat digital media series drives a cohesive understanding of what this Universe is all about.










Language: English
Genre: Action | Crime | Fantasy

Video
ID : 0
Format : MPEG-4 Visual
Format profile : Advanced Simple@L5
Format settings, BVOP : 1
Format settings, QPel : No
Format settings, GMC : No warppoints
Format settings, Matrix : Default (H.263)
Muxing mode : Packed bitstream
Codec ID : XVID
Codec ID/Hint : XviD
Duration : 1h 31mn
Bit rate : 1 078 Kbps
Width : 720 pixels
Height : 304 pixels
Display aspect ratio : 2.35:1
Frame rate : 23.976 fps
Color space : YUV
Chroma subsampling : 4:2:0
Bit depth : 8 bits
Scan type : Progressive
Compression mode : Lossy
Bits/(Pixel*Frame) : 0.205
Stream size : 709 MiB (70%)
Writing library : XviD 64

Audio
ID : 1
Format : AC-3
Format/Info : Audio Coding 3
Mode extension : CM (complete main)
Codec ID : 2000
Duration : 1h 31mn
Bit rate mode : Constant
Bit rate : 448 Kbps
Channel(s) : 6 channels
Channel positions : Front: L C R, Side: L R, LFE
Sampling rate : 48.0 KHz
Bit depth : 16 bits
Compression mode : Lossy
Stream size : 295 MiB (29%)
Alignment : Split accross interleaves
Interleave, duration : 500 ms (11.98 video frames)
Interleave, preload duration : 500 ms







[You must be registered and logged in to see this link.]

Back to top Go down
View user profile
EDI`STEALTH
Contributor
Contributor
avatar

Join date : 2011-12-16
Male Posts : 110
Location : Recycle Bin

PostSubject: Re: Mortal Kombat Legacy 2011   Sun Dec 25, 2011 8:57 pm







Mortal Kombat Legacy 2011

Genre: Action | Crime | Fantasy
Video: 1280*546 pixels|23.976 fps
Audio: English | 6 channels | AC3
Subs: N/A
IMDB Rating: 7.6/10
RT Critics: RT score
Starring: Johnson Phan, Darren Shahlavi and Andrew Chin
Plot:
Mortal Kombat: Legacy brings to life the complex and rich history of the gaming world of MORTAL KOMBAT. Shao Kahn and Shang Tsung are obsessed with reigning over various realms (parallel universes) and the winners of Mortal Kombat competitions are granted supreme control over these worlds. The Earthrealm (Earth) is an unconscious participant in this competition and only a few select humans understand the consequences of losing Mortal Kombat and what it will mean to Earth. In a universe with powerful evil sorcerers, cyborgs, Gods and movie stars, this Mortal Kombat digital media series drives a cohesive understanding of what this Universe is all about.

Download Link:
[You must be registered and logged in to see this link.]


Download Link:
[You must be registered and logged in to see this link.]
Back to top Go down
View user profile
 
Mortal Kombat Legacy 2011
View previous topic View next topic Back to top 
Page 1 of 1
 Similar topics
-
» XOUNTS Style Contest 2011
» Mr. Knockaround 2011... it could be you!
» Future Forward Game Changer Award 2011
» Txuj ci ua zaub mov saib yeeb yaj kiab Suav los xyaum ua zaub mov
» start selenium 2 with Internet Explorer.

Permissions in this forum:You cannot reply to topics in this forum
Technology and Online Community For All :: Movie Zone :: Foreign-
Jump to: