Technology and Online Community For All
welcome JOIN US NOW AND FEEL THE DIFFERENCE headbang

Technology and Online Community For All

What You See Is What You Get
 
HomeCalendarGalleryFAQSearchMemberlistUsergroupsRegisterLog in
September 2017
SunMonTueWedThuFriSat
     12
3456789
10111213141516
17181920212223
24252627282930
CalendarCalendar
Latest topics
» Uniblue PowerSuite
Mon Apr 09, 2012 7:27 pm by BlitzKrieG

» Ova Drive Hider
Fri Mar 02, 2012 8:48 am by CodeWarrior

» Ova Folder Security
Mon Feb 27, 2012 5:06 pm by CodeWarrior

» SPSBox
Sun Feb 26, 2012 4:24 am by CodeWarrior

» Norton [all here]
Thu Feb 23, 2012 8:01 am by BlitzKrieG

» OvaSystemSolution CVRS System
Sat Feb 18, 2012 6:06 am by CodeWarrior

» Avril Lavigne - Smile
Sat Jan 28, 2012 7:14 am by ^PiNKHeRMioNe

» Hot N Cold- Katy Perry
Sat Jan 28, 2012 7:11 am by ^PiNKHeRMioNe

» America's next top model (All Stars) Lisa D'Amato
Sat Jan 28, 2012 6:55 am by ^PiNKHeRMioNe

Search
 
 

Display results as :
 
Rechercher Advanced Search
Who is online?
In total there is 1 user online :: 0 Registered, 0 Hidden and 1 Guest

None

Most users ever online was 25 on Fri Dec 19, 2014 9:47 pm
Top posters
trekyboy
 
BlitzKrieG
 
ZNABiRA
 
EDI`STEALTH
 
*B o R g Z
 
SHY
 
CodeWarrior
 
^PiNKHeRMioNe
 
RaiJin
 
chaotic`
 
Similar topics
Statistics
We have 239 registered users
The newest registered user is Hellraiser666

Our users have posted a total of 948 messages in 662 subjects

Share | 
 

 The Ides of March 2011

View previous topic View next topic Go down 
AuthorMessage
trekyboy
Global Moderator
Global Moderator
avatar

Join date : 2011-12-06
Male Posts : 378

PostSubject: The Ides of March 2011   Tue Dec 20, 2011 6:31 am



[You must be registered and logged in to see this link.]


The Ides of March takes place during the frantic last days before a heavily contested Ohio presidential primary, when an up-and-coming campaign press secretary (Ryan Gosling) finds himself involved in a political scandal that threatens to upend his candidate’s shot at the presidency. Stephen Meyers (Ryan Gosling) is the Junior Campaign Manager for Mike Morris (George Clooney), Governor of Pennsylvania and a Democratic presidential candidate, competing against Arkansas Senator Ted Pullman (Michael Mantell). The candidates are campaigning in Ohio. A win for Morris would all but guarantee him the nomination; a win for Pullman would give him vital momentum. Both campaigns are also attempting to enlist the endorsement of North Carolina Senator Thompson (Jeffrey Wright).










INFO
Language: English
Genre: 7.4/10 from 13,651 users

General
Complete name: The.Ides.of.March.2011.480p.BRRip.XviD.AC3-NYDIC.avi
Format : AVI
Format/Info: Audio Video Interleave
File size: 1.44 GiB
Duration : 1h 41mn
Overall bit rate : 2 041 Kbps
Writing application: VirtualDubMod 1.5.10.2 (build 2540/release)
Writing library: VirtualDubMod build 2540/release

Video
ID : 0
Format : MPEG-4 Visual
Format profile : Advanced Simple@L5
Format settings, BVOP: 2
Format settings, QPel: No
Format settings, GMC : No warppoints
Format settings, Matrix: Default (H.263)
Muxing mode: Packed bitstream
Codec ID : XVID
Codec ID/Hint: XviD
Duration : 1h 41mn
Bit rate : 1 583 Kbps
Width: 720 pixels
Height : 304 pixels
Display aspect ratio : 2.35:1
Frame rate : 23.976 fps
Color space: YUV
Chroma subsampling : 4:2:0
Bit depth: 8 bits
Scan type: Progressive
Compression mode : Lossy
Bits/(Pixel*Frame) : 0.302
Stream size: 1.12 GiB (78%)
Writing library: XviD 63

Audio
ID : 1
Format : AC-3
Format/Info: Audio Coding 3
Mode extension : CM (complete main)
Codec ID : 2000
Duration : 1h 41mn
Bit rate mode: Constant
Bit rate : 448 Kbps
Channel(s) : 6 channels
Channel positions: Front: L C R, Side: L R, LFE
Sampling rate: 48.0 KHz
Bit depth: 16 bits
Compression mode : Lossy
Stream size: 324 MiB (22%)
Alignment: Split accross interleaves
Interleave, duration : 42 ms (1.00 video frame)
Interleave, preload duration : 500 ms



[You must be registered and logged in to see this link.]
Back to top Go down
View user profile
 
The Ides of March 2011
View previous topic View next topic Back to top 
Page 1 of 1
 Similar topics
-
» XOUNTS Style Contest 2011
» Mr. Knockaround 2011... it could be you!
» Future Forward Game Changer Award 2011
» What are the basic requirements for using Selenium IDE?
» Test javascript Calendar

Permissions in this forum:You cannot reply to topics in this forum
Technology and Online Community For All :: Movie Zone :: Foreign-
Jump to: