Technology and Online Community For All
welcome JOIN US NOW AND FEEL THE DIFFERENCE headbang

Technology and Online Community For All

What You See Is What You Get
 
HomeCalendarGalleryFAQSearchMemberlistUsergroupsRegisterLog in
July 2017
SunMonTueWedThuFriSat
      1
2345678
9101112131415
16171819202122
23242526272829
3031     
CalendarCalendar
Latest topics
» Uniblue PowerSuite
Mon Apr 09, 2012 7:27 pm by BlitzKrieG

» Ova Drive Hider
Fri Mar 02, 2012 8:48 am by CodeWarrior

» Ova Folder Security
Mon Feb 27, 2012 5:06 pm by CodeWarrior

» SPSBox
Sun Feb 26, 2012 4:24 am by CodeWarrior

» Norton [all here]
Thu Feb 23, 2012 8:01 am by BlitzKrieG

» OvaSystemSolution CVRS System
Sat Feb 18, 2012 6:06 am by CodeWarrior

» Avril Lavigne - Smile
Sat Jan 28, 2012 7:14 am by ^PiNKHeRMioNe

» Hot N Cold- Katy Perry
Sat Jan 28, 2012 7:11 am by ^PiNKHeRMioNe

» America's next top model (All Stars) Lisa D'Amato
Sat Jan 28, 2012 6:55 am by ^PiNKHeRMioNe

Search
 
 

Display results as :
 
Rechercher Advanced Search
Who is online?
In total there is 1 user online :: 0 Registered, 0 Hidden and 1 Guest

None

Most users ever online was 25 on Fri Dec 19, 2014 9:47 pm
Top posters
trekyboy
 
BlitzKrieG
 
ZNABiRA
 
EDI`STEALTH
 
*B o R g Z
 
SHY
 
CodeWarrior
 
^PiNKHeRMioNe
 
RaiJin
 
chaotic`
 
Similar topics
Statistics
We have 239 registered users
The newest registered user is Hellraiser666

Our users have posted a total of 949 messages in 663 subjects

Share | 
 

 Kill List 2011

View previous topic View next topic Go down 
AuthorMessage
trekyboy
Global Moderator
Global Moderator
avatar

Join date : 2011-12-06
Male Posts : 378

PostSubject: Kill List 2011   Mon Dec 26, 2011 9:53 am



[You must be registered and logged in to see this link.]

Eight months after a disastrous job in Kiev left him physically and mentally scarred, ex-soldier turned contract killer, Jay, is pressured by his partner, Gal, into taking a new assignment. As they descend into the dark and disturbing world of the contract, Jay begins to unravel once again – his fear and paranoia sending him deep into the heart of darkness.









Language: English
Genre: Horror | Thriller

General
Complete name: rb-kill.list.avi
Format : AVI
Format/Info: Audio Video Interleave
File size: 701 MiB
Duration : 1h 31mn
Overall bit rate mode: Variable
Overall bit rate : 1 071 Kbps
Writing application: VirtualDubMod 1.5.10.2 (build 2540/release)
Writing library: VirtualDubMod build 2540/release

Video
ID : 0
Format : MPEG-4 Visual
Format profile : Advanced Simple@L5
Format settings, BVOP: 2
Format settings, QPel: No
Format settings, GMC : No warppoints
Format settings, Matrix: Default (H.263)
Codec ID : XVID
Codec ID/Hint: XviD
Duration : 1h 31mn
Bit rate : 931 Kbps
Width: 640 pixels
Height : 256 pixels
Display aspect ratio : 2.500
Frame rate : 25.000 fps
Color space: YUV
Chroma subsampling : 4:2:0
Bit depth: 8 bits
Scan type: Progressive
Compression mode : Lossy
Bits/(Pixel*Frame) : 0.227
Stream size: 609 MiB (87%)
Writing library: XviD 1.2.1 (UTC 2008-12-04)

Audio
ID : 1
Format : MPEG Audio
Format version : Version 1
Format profile : Layer 3
Mode : Joint stereo
Mode extension : MS Stereo
Codec ID : 55
Codec ID/Hint: MP3
Duration : 1h 31mn
Bit rate mode: Variable
Bit rate : 128 Kbps
Channel(s) : 2 channels
Sampling rate: 48.0 KHz
Compression mode : Lossy
Stream size: 83.1 MiB (12%)
Alignment: Aligned on interleaves
Interleave, duration : 24 ms (0.60 video frame)
Interleave, preload duration : 396 ms
Writing library: LAME3.90.
Encoding settings: -m j -V 4 -q 2 -lowpass 17.6 --abr 128

download icon
[You must be registered and logged in to see this link.]

______________________________________________________________________________________________________________
Back to top Go down
View user profile
 
Kill List 2011
View previous topic View next topic Back to top 
Page 1 of 1
 Similar topics
-
» XOUNTS Style Contest 2011
» Mr. Knockaround 2011... it could be you!
» Kate McCann named one of the 20 most inspirational women in Britain
» Future Forward Game Changer Award 2011
» Urgent-how can i select and click on items present in combo box/drop down list box

Permissions in this forum:You cannot reply to topics in this forum
Technology and Online Community For All :: Movie Zone :: Foreign-
Jump to: