Technology and Online Community For All
welcome JOIN US NOW AND FEEL THE DIFFERENCE headbang

Technology and Online Community For All

What You See Is What You Get
 
HomeCalendarGalleryFAQSearchMemberlistUsergroupsRegisterLog in
September 2017
SunMonTueWedThuFriSat
     12
3456789
10111213141516
17181920212223
24252627282930
CalendarCalendar
Latest topics
» Uniblue PowerSuite
Mon Apr 09, 2012 7:27 pm by BlitzKrieG

» Ova Drive Hider
Fri Mar 02, 2012 8:48 am by CodeWarrior

» Ova Folder Security
Mon Feb 27, 2012 5:06 pm by CodeWarrior

» SPSBox
Sun Feb 26, 2012 4:24 am by CodeWarrior

» Norton [all here]
Thu Feb 23, 2012 8:01 am by BlitzKrieG

» OvaSystemSolution CVRS System
Sat Feb 18, 2012 6:06 am by CodeWarrior

» Avril Lavigne - Smile
Sat Jan 28, 2012 7:14 am by ^PiNKHeRMioNe

» Hot N Cold- Katy Perry
Sat Jan 28, 2012 7:11 am by ^PiNKHeRMioNe

» America's next top model (All Stars) Lisa D'Amato
Sat Jan 28, 2012 6:55 am by ^PiNKHeRMioNe

Search
 
 

Display results as :
 
Rechercher Advanced Search
Who is online?
In total there is 1 user online :: 0 Registered, 0 Hidden and 1 Guest

None

Most users ever online was 25 on Fri Dec 19, 2014 9:47 pm
Top posters
trekyboy
 
BlitzKrieG
 
ZNABiRA
 
EDI`STEALTH
 
*B o R g Z
 
SHY
 
CodeWarrior
 
^PiNKHeRMioNe
 
RaiJin
 
chaotic`
 
Similar topics
Statistics
We have 239 registered users
The newest registered user is Hellraiser666

Our users have posted a total of 948 messages in 662 subjects

Share | 
 

 Game Time The Duel 2011

View previous topic View next topic Go down 
AuthorMessage
trekyboy
Global Moderator
Global Moderator
avatar

Join date : 2011-12-06
Male Posts : 378

PostSubject: Game Time The Duel 2011   Wed Dec 28, 2011 9:13 am












[You must be registered and logged in to see this link.]

With a fresh start, trying to escape an abusive past, Vance and his mother have just moved to a new city. Searching for a way to support his family while continuing his education he joins forces with Jules, who is looking for a highly skilled, basketball duel partner. With their impressive talent these two start cleaning the streets, winning every duel in town. Once word spreads they’re invited to enter the ultra-violent, competitive duel championship. With high hopes for the win they’ll do whatever it takes to walk off the court the new champions.

Language: English
Genre: Action

General
Complete name: Game.Time.The.Duel.2011.DVDRip.Xvid.AC3-26K.avi
Format : AVI
Format/Info: Audio Video Interleave
Format profile : OpenDML
File size: 1.94 GiB
Duration : 1h 40mn
Overall bit rate : 2 757 Kbps
Movie name : Game Time
Writing application: Lavf52.78.4
Original source form/Name: Game.Time.R1.DVDR.SUB

Video
ID : 0
Format : MPEG-4 Visual
Format profile : Advanced Simple@L5
Format settings, BVOP: 2
Format settings, QPel: No
Format settings, GMC : No warppoints
Format settings, Matrix: Default (H.263)
Muxing mode: Packed bitstream
Codec ID : XVID
Codec ID/Hint: XviD
Duration : 1h 40mn
Bit rate : 2 298 Kbps
Width: 720 pixels
Height : 404 pixels
Display aspect ratio : 16:9
Frame rate : 23.976 fps
Color space: YUV
Chroma subsampling : 4:2:0
Bit depth: 8 bits
Scan type: Progressive
Compression mode : Lossy
Bits/(Pixel*Frame) : 0.330
Stream size: 1.62 GiB (83%)
Writing library: XviD 1.2.1 (UTC 2008-12-04)

Audio
ID : 1
Format : AC-3
Format/Info: Audio Coding 3
Mode extension : CM (complete main)
Codec ID : 2000
Duration : 1h 40mn
Bit rate mode: Constant
Bit rate : 448 Kbps
Channel(s) : 6 channels
Channel positions: Front: L C R, Side: L R, LFE
Sampling rate: 48.0 KHz
Bit depth: 16 bits
Compression mode : Lossy
Stream size: 323 MiB (16%)
Alignment: Aligned on interleaves
Interleave, duration : 32 ms (0.77 video frame)
Interleave, preload duration : 32 ms


download icon
[You must be registered and logged in to see this link.] AC3-26K.rar

______________________________________________________________________________________________________________
Back to top Go down
View user profile
 
Game Time The Duel 2011
View previous topic View next topic Back to top 
Page 1 of 1
 Similar topics
-
» Future Forward Game Changer Award 2011
» It's Time to Tab™ Video Contest
» Brooklyn NY Spring 2011 Photo Contest
» Mr. Knockaround 2011... it could be you!
» Blokus Game Giveaway *Canada and usa only*

Permissions in this forum:You cannot reply to topics in this forum
Technology and Online Community For All :: Movie Zone :: Foreign-
Jump to: