Technology and Online Community For All
welcome JOIN US NOW AND FEEL THE DIFFERENCE headbang

Technology and Online Community For All

What You See Is What You Get
 
HomeCalendarGalleryFAQSearchMemberlistUsergroupsRegisterLog in
November 2017
SunMonTueWedThuFriSat
   1234
567891011
12131415161718
19202122232425
2627282930  
CalendarCalendar
Latest topics
» Uniblue PowerSuite
Mon Apr 09, 2012 7:27 pm by BlitzKrieG

» Ova Drive Hider
Fri Mar 02, 2012 8:48 am by CodeWarrior

» Ova Folder Security
Mon Feb 27, 2012 5:06 pm by CodeWarrior

» SPSBox
Sun Feb 26, 2012 4:24 am by CodeWarrior

» Norton [all here]
Thu Feb 23, 2012 8:01 am by BlitzKrieG

» OvaSystemSolution CVRS System
Sat Feb 18, 2012 6:06 am by CodeWarrior

» Avril Lavigne - Smile
Sat Jan 28, 2012 7:14 am by ^PiNKHeRMioNe

» Hot N Cold- Katy Perry
Sat Jan 28, 2012 7:11 am by ^PiNKHeRMioNe

» America's next top model (All Stars) Lisa D'Amato
Sat Jan 28, 2012 6:55 am by ^PiNKHeRMioNe

Search
 
 

Display results as :
 
Rechercher Advanced Search
Who is online?
In total there is 1 user online :: 0 Registered, 0 Hidden and 1 Guest

None

Most users ever online was 25 on Fri Dec 19, 2014 9:47 pm
Top posters
trekyboy
 
BlitzKrieG
 
ZNABiRA
 
EDI`STEALTH
 
*B o R g Z
 
SHY
 
CodeWarrior
 
^PiNKHeRMioNe
 
RaiJin
 
chaotic`
 
Statistics
We have 239 registered users
The newest registered user is Hellraiser666

Our users have posted a total of 948 messages in 662 subjects

Share | 
 

 Salvation Boulevard 2011

View previous topic View next topic Go down 
AuthorMessage
trekyboy
Global Moderator
Global Moderator
avatar

Join date : 2011-12-06
Male Posts : 378

PostSubject: Salvation Boulevard 2011   Sat Dec 10, 2011 3:07 pm



Salvation Boulevard is a modern comedy based on the book of the same title by Larry Beinhart about Pastor Dan Day, a charismatic evangelical preacher who has captivated a small western American town with his charm – and the promise of a sweet real estate development. Carl is a former follower – not of Christ, but of the Grateful Dead – who has since become “found” in Dan’s Evangelical community, serving as one of the preacher’s great examples of spiritual and moral transformation. But Carl’s new belief system is turned upside down when he witnesses a sinful act that Pastor Dan’s doughy henchman aims to cover up.










Language: English
Genre: Comedy | Thriller

General
Complete name: saimorny-salvation.boulevard.xvid.avi
Format : AVI
Format/Info: Audio Video Interleave
File size: 700 MiB
Duration : 1h 36mn
Overall bit rate mode: Variable
Overall bit rate : 1 019 Kbps
Writing application: VirtualDubMod 1.5.10.2 (build 2540/release)
Writing library: VirtualDubMod build 2540/release

Video
ID : 0
Format : MPEG-4 Visual
Format profile : Advanced Simple@L5
Format settings, BVOP: 2
Format settings, QPel: No
Format settings, GMC : No warppoints
Format settings, Matrix: Default (H.263)
Muxing mode: Packed bitstream
Codec ID : XVID
Codec ID/Hint: XviD
Duration : 1h 36mn
Bit rate : 884 Kbps
Width: 624 pixels
Height : 336 pixels
Display aspect ratio : 1.857
Frame rate : 24.000 fps
Color space: YUV
Chroma subsampling : 4:2:0
Bit depth: 8 bits
Scan type: Progressive
Compression mode : Lossy
Bits/(Pixel*Frame) : 0.176
Stream size: 608 MiB (87%)
Writing library: XviD 1.0.3 (UTC 2004-12-20)

Audio
ID : 1
Format : MPEG Audio
Format version : Version 1
Format profile : Layer 3
Mode : Joint stereo
Mode extension : MS Stereo
Codec ID : 55
Codec ID/Hint: MP3
Duration : 1h 36mn
Bit rate mode: Variable
Bit rate : 128 Kbps
Channel(s) : 2 channels
Sampling rate: 48.0 KHz
Compression mode : Lossy
Stream size: 84.0 MiB (12%)
Alignment: Aligned on interleaves
Interleave, duration : 24 ms (0.58 video frame)
Interleave, preload duration : 150 ms
Writing library: LAME3.98r
Encoding settings: -m j -V 4 -q 2 -lowpass 17 --abr 128




[You must be registered and logged in to see this link.]
Back to top Go down
View user profile
 
Salvation Boulevard 2011
View previous topic View next topic Back to top 
Page 1 of 1

Permissions in this forum:You cannot reply to topics in this forum
Technology and Online Community For All :: Movie Zone :: Foreign-
Jump to: